<?xml version="1.0" standalone="no"?>
<!DOCTYPE svg PUBLIC "-//W3C//DTD SVG 1.1//EN" "http://www.w3.org/Graphics/SVG/1.1/DTD/svg11.dtd" >
<svg xmlns="http://www.w3.org/2000/svg">
<metadata>
This is a custom SVG webfont generated by Font Squirrel.
Copyright   : Copyright c 2011 TypeTogether wwwtypetogethercom with Reserved Font Names Bree and Bree Serif
Designer    : Veronika Burian Jos Scaglione
Foundry     : TypeTogether
Foundry URL : wwwtypetogethercom
</metadata>
<defs>
<font id="BreeSerifRegular" horiz-adv-x="1095" >
<font-face units-per-em="2048" ascent="1638" descent="-410" />
<missing-glyph horiz-adv-x="409" />
<glyph unicode=" "  horiz-adv-x="409" />
<glyph unicode="&#x09;" horiz-adv-x="409" />
<glyph unicode="&#xa0;" horiz-adv-x="409" />
<glyph unicode="!" horiz-adv-x="567" d="M143 102q0 55 39 95.5t99 40.5q66 0 104.5 -38t38.5 -95.5t-38 -98.5t-99 -41q-68 0 -106 39t-38 98zM172 1083v244q0 96 113 96q117 0 116 -100v-240l-41 -714h-145z" />
<glyph unicode="&#x22;" horiz-adv-x="714" d="M115 1362h190l-20 -471h-150zM408 1362h190l-18 -471h-152z" />
<glyph unicode="#" horiz-adv-x="1093" d="M37 322v135h219l29 319h-209v135h219l31 328h149l-31 -328h226l30 328h150l-31 -328h207v-135h-217l-29 -319h207v-135h-219l-27 -322h-149l26 322h-225l-26 -322h-150l27 322h-207zM406 457h225l28 319h-225z" />
<glyph unicode="$" d="M113 969q0 152 97 251t261 121v189h154v-184q172 -10 317 -78v-289l-201 -12v110q0 29 -8 42.5t-33 21.5q-43 12 -75 14v-360h2q80 -25 135 -49.5t114.5 -68.5t89 -110.5t29.5 -154.5q0 -162 -101 -262.5t-269 -124.5v-211h-154v204q-197 6 -352 78v305l203 15v-119 q0 -29 8 -42t32 -22q45 -16 109 -16v383q-80 23 -137.5 47.5t-111.5 66.5t-81.5 105.5t-27.5 149.5zM365 991q0 -94 106 -143v295q-106 -37 -106 -152zM625 231q116 37 116 170q0 102 -116 150v-320z" />
<glyph unicode="%" horiz-adv-x="1640" d="M70 971q0 180 87.5 277.5t237.5 97.5q147 0 231.5 -92.5t84.5 -274.5q0 -186 -85 -283.5t-241 -97.5q-154 0 -234.5 94t-80.5 279zM248 965q0 -226 139 -226q143 0 143 234q0 231 -139 231q-143 0 -143 -239zM438 55l598 1282l166 -69l-602 -1286zM934 344 q0 180 88 277.5t238 97.5q147 0 231 -92t84 -275q0 -186 -85 -283.5t-241 -97.5q-154 0 -234.5 94.5t-80.5 278.5zM1112 338q0 -225 139 -225q143 0 144 233q0 231 -140 232q-143 0 -143 -240z" />
<glyph unicode="&#x26;" horiz-adv-x="1462" d="M102 387q0 270 250 426q-63 104 -63 225q0 156 104.5 252t290.5 96q193 0 373 -83v-310l-209 -14v125q0 57 -43 72q-55 16 -109 16q-166 0 -166 -158q1 -208 443 -583q39 98 39 188q0 29 -37 33l-66 4v160h432v-166l-112 -4q0 -197 -86 -361q92 -78 258 -196l-135 -179 q-123 82 -258 193q-152 -152 -422 -152q-246 0 -365 121t-119 295zM340 403q0 -104 64.5 -168.5t187.5 -64.5q158 0 244 96q-246 209 -371 377q-125 -88 -125 -240z" />
<glyph unicode="'" horiz-adv-x="419" d="M115 1362h190l-20 -471h-150z" />
<glyph unicode="(" horiz-adv-x="677" d="M141 555q0 465 271 938l194 -90q-223 -440 -223 -838q0 -385 221 -833l-192 -92q-271 458 -271 915z" />
<glyph unicode=")" horiz-adv-x="677" d="M72 -266q223 440 223 837q0 385 -221 834l192 92q271 -458 271 -915q0 -465 -271 -938z" />
<glyph unicode="*" horiz-adv-x="925" d="M92 1186l14 90q10 66 57.5 82t94.5 -21l158 -110l-66 291l86 22q66 18 98.5 -17.5t20.5 -97.5l-37 -202l240 151l51 -74q37 -57 15.5 -101t-83.5 -48l-190 -16l221 -164l-51 -74q-41 -55 -88 -49t-76 61l-98 183l-140 -252l-81 39q-61 29 -61.5 80t48.5 81l142 101z" />
<glyph unicode="+" d="M127 545v200h315v330h209v-330h316v-200h-316v-328h-209v328h-315z" />
<glyph unicode="," horiz-adv-x="493" d="M74 -279l63 416q14 102 101 103q10 0 21 -2t20.5 -4.5t21.5 -7.5t19 -9l23 -12q15 -8 21.5 -12.5t25 -15.5t24.5 -15l-211 -479z" />
<glyph unicode="-" horiz-adv-x="659" d="M61 496v188h537v-188h-537z" />
<glyph unicode="." horiz-adv-x="462" d="M82 115q0 63 40 105t105 42q72 0 113 -40t41 -105q0 -63 -39 -105.5t-106 -42.5q-76 0 -115 40t-39 106z" />
<glyph unicode="/" horiz-adv-x="876" d="M16 -147l627 1693l213 -76l-631 -1695z" />
<glyph unicode="0" d="M72 664q0 342 129 512t356 170q465 0 465 -674q0 -358 -121 -525t-358.5 -167t-354 164.5t-116.5 519.5zM319 641q0 -254 58.5 -359.5t169 -105.5t171 108.5t60.5 383.5q0 264 -58 370.5t-169 106.5q-115 0 -173.5 -113.5t-58.5 -390.5z" />
<glyph unicode="1" horiz-adv-x="929" d="M90 1087l373 232h201v-1135l213 -10v-174h-713v168l196 12q31 2 45.5 16.5t14.5 51.5v805l-240 -123z" />
<glyph unicode="2" horiz-adv-x="1050" d="M121 0v158l407 514q63 82 84 109.5t40.5 77.5t19.5 106q0 86 -48.5 131t-123.5 45q-74 0 -123 -17q-27 -8 -34 -23.5t-7 -47.5v-146l-209 15v327q193 96 414 97q184 0 286.5 -99.5t102.5 -265.5q0 -178 -174 -389l-330 -389h512v-203h-817z" />
<glyph unicode="3" horiz-adv-x="1069" d="M82 76l72 194q162 -90 321 -90q223 0 223 199q0 102 -67.5 150.5t-229.5 48.5h-77l18 186h211q123 78 123 219q0 158 -178 158q-66 0 -127 -21q-27 -8 -34 -23.5t-7 -47.5v-148l-209 14v328q205 102 418 103q188 0 287.5 -91.5t99.5 -236.5q0 -106 -51.5 -193.5 t-135.5 -140.5q207 -66 207 -291q0 -188 -116.5 -304t-346.5 -116q-113 0 -224.5 31t-176.5 72z" />
<glyph unicode="4" horiz-adv-x="1097" d="M82 371v170l385 809l195 -97l-330 -690h293v111l86 272h143v-383h182v-194h-184v-185l170 -10v-174h-602v168l127 10q59 4 59 58v135h-524z" />
<glyph unicode="5" horiz-adv-x="1038" d="M59 80l82 188q160 -88 308 -88q209 0 208 201q0 250 -489 250l88 688h408q47 0 47 57v88l194 -14v-326h-469l-41 -313q229 -16 373.5 -119.5t144.5 -306.5q0 -166 -110.5 -287t-343.5 -121q-115 0 -224.5 31t-175.5 72z" />
<glyph unicode="6" horiz-adv-x="1093" d="M111 565q0 731 698 809l47 -184q-438 -55 -489 -434q129 84 278 84q168 0 262 -106.5t94 -291.5q0 -207 -115.5 -336t-330.5 -129q-229 0 -336.5 160t-107.5 428zM352 586q-6 -190 44 -305t167 -115q88 0 143.5 70.5t55.5 195.5q0 233 -182 234q-53 0 -122 -25t-106 -55z " />
<glyph unicode="7" horiz-adv-x="972" d="M47 985v334h885v-170l-469 -1149h-256l481 1116h-387q-45 0 -45 -63v-82z" />
<glyph unicode="8" d="M96 326q0 227 250 372q-207 127 -207 306q0 147 115 244.5t301 97.5q199 0 296 -89.5t97 -218.5q0 -164 -194 -327q250 -145 250 -357q0 -162 -117 -269.5t-348 -107.5q-233 0 -338 104t-105 245zM336 342q0 -74 52 -126t151 -52q94 0 148 49t54 135q0 82 -57 138.5 t-170 113.5q-86 -57 -132 -115.5t-46 -142.5zM377 1018q0 -123 194 -221q61 41 105.5 103.5t44.5 125.5q0 68 -48 106.5t-126 38.5q-72 0 -121 -44t-49 -109z" />
<glyph unicode="9" d="M102 881q0 205 117 335t334 130q229 0 333.5 -160t104.5 -428q1 -720 -706 -783l-49 191q236 27 358.5 125t144.5 270q-119 -78 -282 -78q-168 0 -261.5 106.5t-93.5 291.5zM342 889q0 -106 47 -166.5t133 -60.5q55 0 124 23.5t106 51.5q10 418 -207 418 q-92 0 -147.5 -69.5t-55.5 -196.5z" />
<glyph unicode=":" horiz-adv-x="462" d="M82 115q0 63 40 105t105 42q72 0 113 -40t41 -105q0 -63 -39 -105.5t-106 -42.5q-76 0 -115 40t-39 106zM82 869q0 63 40 105t105 42q72 0 113 -40t41 -105q0 -63 -39 -105.5t-106 -42.5q-76 0 -115 40t-39 106z" />
<glyph unicode=";" horiz-adv-x="493" d="M74 -279l63 416q14 102 101 103q10 0 21 -2t20.5 -4.5t21.5 -7.5t19 -9l23 -12q15 -8 21.5 -12.5t25 -15.5t24.5 -15l-211 -479zM139 868q0 63 40 105.5t106 42.5q72 0 112.5 -40t40.5 -106q0 -63 -39 -105t-106 -42q-76 0 -115 39.5t-39 105.5z" />
<glyph unicode="&#x3c;" d="M139 573v160l750 367l82 -182l-559 -259l563 -270l-86 -184z" />
<glyph unicode="=" d="M133 332v198h830v-198h-830zM133 725v197h830v-197h-830z" />
<glyph unicode="&#x3e;" d="M139 389l563 270l-559 259l82 182l750 -367v-160l-750 -368z" />
<glyph unicode="?" horiz-adv-x="886" d="M82 1049v280q197 94 377 94q178 0 266 -84t88 -225q0 -127 -54 -203.5t-165 -158.5q-61 -43 -84 -72t-25 -86l-10 -225h-196l-11 215q-6 111 31 176t133 137q8 6 30.5 22.5t31 22.5t26 21.5t24.5 28t16 29.5t12 36.5t3 44.5q0 129 -141 129q-47 0 -102 -17 q-27 -6 -34 -22t-7 -49v-109zM238 102q0 55 38.5 95.5t98.5 40.5q66 0 104.5 -38t38.5 -95.5t-38 -98.5t-99 -41q-68 0 -105.5 39t-37.5 98z" />
<glyph unicode="@" horiz-adv-x="1951" d="M137 434q0 422 252 657.5t647 235.5q350 0 563 -193.5t213 -545.5q0 -287 -139 -436.5t-370 -151.5h-117l-17 111l-6 2q-80 -119 -241 -119q-334 0 -334 418q0 238 115.5 368.5t328.5 130.5q147 0 307 -59v-600l9 -109q286 19 286 439q0 268 -153.5 426.5t-456.5 158.5 q-336 0 -517 -202.5t-181 -522.5q0 -305 162.5 -493.5t455.5 -188.5q182 0 324 64l51 -150q-162 -70 -381 -69q-205 0 -362.5 68.5t-252 186t-140.5 263t-46 311.5zM788 418q0 -272 181 -273q168 0 168 197v397q-49 23 -117 23q-231 -2 -232 -344z" />
<glyph unicode="A" horiz-adv-x="1355" d="M10 0v166l68 6q43 4 61 57l330 955l-129 12v166h469l418 -1182h2l117 -6v-174h-529v166l78 6q35 4 47 16.5t2 44.5l-43 127h-479l-62 -180l123 -6v-174h-473zM471 549h381l-184 584h-6z" />
<glyph unicode="B" horiz-adv-x="1232" d="M70 0v166l67 6q59 6 60 57v953l-117 6v174h577q442 0 443 -342q0 -188 -189 -287q121 -31 189.5 -112.5t68.5 -212.5q0 -199 -134 -303.5t-390 -104.5h-575zM446 193h193q266 0 266 217q0 102 -66.5 156.5t-189.5 54.5h-203v-428zM446 803h152q127 0 187.5 52t60.5 138 q0 102 -60.5 141.5t-173.5 39.5h-166v-371z" />
<glyph unicode="C" horiz-adv-x="1232" d="M82 674q0 193 55.5 336t149.5 222t203.5 116.5t234.5 37.5q205 0 385 -83v-349l-209 -14v160q0 31 -8 45t-35 22q-51 16 -133 17q-190 0 -288.5 -129t-98.5 -365q0 -252 93 -385q90 -129 286 -129h12q90 0 150 19q27 8 35 22t8 45v164l208 -14v-355q-160 -84 -405 -84 q-313 0 -478 176.5t-165 524.5z" />
<glyph unicode="D" horiz-adv-x="1361" d="M70 0v166l67 6q59 6 60 57v953l-117 6v174h561q301 0 470 -160t169 -473q0 -195 -51 -339t-140.5 -227t-199 -123t-238.5 -40h-581zM446 197h209q176 0 274.5 127t98.5 368q0 471 -399 471h-183v-966z" />
<glyph unicode="E" horiz-adv-x="1124" d="M70 0v166l67 6q59 6 60 57v953l-117 6v174h938v-340l-209 -14v82q0 35 -10.5 49t-48.5 14h-304v-350h474v-209h-474v-383h330q37 0 47.5 15.5t10.5 49.5v103l208 -14v-365h-972z" />
<glyph unicode="F" horiz-adv-x="1112" d="M70 0v166l67 6q59 6 60 57v953l-117 6v174h989v-340l-209 -14v82q0 35 -10 49t-49 14h-355v-362h504v-209h-504v-402l183 -6v-174h-559z" />
<glyph unicode="G" horiz-adv-x="1312" d="M82 678q0 154 40 276.5t104.5 202.5t151.5 132t176 74.5t181 22.5q221 0 402 -83v-349l-209 -14v160q0 31 -8.5 45t-34.5 22q-51 16 -152 17q-395 0 -395 -490q0 -516 356 -516q141 0 217 49v305h-2l-157 7v174h510v-164l-48 -4q-33 -4 -46 -17.5t-13 -50.5v-371 q-190 -131 -471 -131q-285 0 -443.5 177.5t-158.5 525.5z" />
<glyph unicode="H" horiz-adv-x="1458" d="M66 0v166l67 6q59 6 60 57v953l-117 6v174h495v-166l-67 -6q-33 -4 -47.5 -17.5t-14.5 -50.5v-317h580v377l-117 6v174h496v-166l-68 -6q-59 -6 -59 -66v-944l117 -6v-174h-496v166l68 6q31 4 45 17.5t14 50.5v354h-580v-414l119 -6v-174h-495z" />
<glyph unicode="I" horiz-adv-x="628" d="M66 0v166l67 6q31 4 45.5 17.5t14.5 50.5v942l-117 6v174h495v-166l-67 -6q-59 -6 -60 -66v-944l117 -6v-174h-495z" />
<glyph unicode="J" horiz-adv-x="970" d="M57 59v359l209 14v-162q0 -31 8.5 -45t34.5 -24q43 -16 107 -17q82 0 114.5 44t32.5 143v809l-160 8v174h537v-166l-68 -6q-59 -6 -59 -64v-637q0 -145 -8 -215q-16 -143 -112.5 -222t-274.5 -79q-209 0 -361 86z" />
<glyph unicode="K" horiz-adv-x="1273" d="M66 0v166l67 6q31 4 45.5 17.5t14.5 50.5v942l-117 6v174h491v-166l-67 -6q-59 -6 -60 -66v-450l418 508l-115 6v174h480v-166l-68 -6q-39 -4 -82 -57l-291 -357l363 -596l108 -6v-174h-524v166l64 6q40 4 40 32q0 14 -10 34l-202 350l-181 -217v-191l117 -6v-174h-491z " />
<glyph unicode="L" horiz-adv-x="1099" d="M66 0v166l67 6q59 6 60 57v953l-117 6v174h493v-166l-67 -6q-59 -6 -60 -66v-913h340q29 0 38 15.5t9 49.5v144l209 -14v-406h-972z" />
<glyph unicode="M" horiz-adv-x="1708" d="M41 0v166l74 6q47 4 51 55l55 953l-125 8v174h412l348 -926h4l350 926h406v-166l-68 -6q-61 -6 -59 -72l51 -938l127 -6v-174h-493v166l73 6q55 4 53 53l-38 723h-5l-315 -817h-194l-312 809h-4l-41 -760l133 -6v-174h-483z" />
<glyph unicode="N" horiz-adv-x="1443" d="M66 0v166l73 6q53 4 54 57v953l-117 6v174h368l580 -940h4v760l-135 6v174h500v-166l-74 -6q-49 -4 -49 -64v-1126h-240l-592 954h-4v-774l133 -6v-174h-501z" />
<glyph unicode="O" horiz-adv-x="1359" d="M82 678q0 188 55.5 330.5t146.5 221.5t195.5 117.5t218.5 38.5q252 0 416 -171.5t164 -536.5q0 -342 -163 -523.5t-439 -181.5q-279 0 -436.5 180.5t-157.5 524.5zM338 688q0 -508 352 -508q94 0 162 41t103.5 114t52 155.5t16.5 181.5q0 90 -14.5 169t-48 159.5 t-104.5 128t-171 47.5q-125 0 -206 -74t-111.5 -178.5t-30.5 -235.5z" />
<glyph unicode="P" horiz-adv-x="1208" d="M66 0v166l67 6q59 6 60 57v953l-117 6v174h586q229 0 357 -107.5t128 -310.5q0 -227 -145.5 -347t-385.5 -120h-174v-297l197 -6v-174h-573zM442 676h148q299 0 299 244q0 147 -77 195t-245 48h-125v-487z" />
<glyph unicode="Q" horiz-adv-x="1359" d="M80 678q0 188 55 330.5t146.5 221.5t196 117.5t218.5 38.5q252 0 416 -171.5t164 -536.5q0 -264 -111.5 -434t-322.5 -226v-6q88 -4 169 -33.5t131 -60.5t130 -50q51 -13 108 -13q32 0 66 4l-25 -197q-27 -3 -54 -3l-204 36q-129 45 -252 102.5t-215 63.5q-20 2 -41 2 q-58 0 -116 -13l28 148q-487 63 -487 680zM336 688q0 -508 352 -508q94 0 162 41t103.5 114t52 155.5t16.5 181.5q0 90 -14.5 169t-48 159.5t-104.5 128t-171 47.5q-125 0 -206 -74t-111.5 -178.5t-30.5 -235.5z" />
<glyph unicode="R" horiz-adv-x="1282" d="M66 0v166l67 6q59 6 60 57v953l-117 6v174h559q238 0 364.5 -88t126.5 -289q0 -139 -72.5 -229t-172.5 -131q74 -27 116 -125l148 -322l117 -4v-174h-506v166l59 6q47 6 47 37q0 13 -8 29l-96 204q-23 51 -50.5 73t-78.5 22h-187v-357l133 -6v-174h-509zM442 731h179 q251 0 251 223q0 131 -66.5 170t-213.5 39h-150v-432z" />
<glyph unicode="S" horiz-adv-x="1069" d="M88 985q0 186 130 293.5t345 107.5q205 0 385 -83v-308l-209 -14v119q0 31 -8 45t-35 22q-51 16 -133 17q-98 0 -156.5 -43t-58.5 -133q0 -37 15.5 -67t34 -48.5t62.5 -37.5t71.5 -28.5t89.5 -27.5q84 -27 140 -53.5t117.5 -72.5t93.5 -117t32 -165q0 -197 -138.5 -307.5 t-357.5 -110.5q-233 0 -414 84v324l209 14v-125q0 -31 8 -45t35 -22q60 -19 148 -19q245 0 245 195q0 39 -14 68.5t-34.5 49t-58.5 37t-69 27.5t-84 25q-88 25 -148.5 50.5t-120.5 70.5t-91 114.5t-31 163.5z" />
<glyph unicode="T" horiz-adv-x="1132" d="M31 1014v348h1071v-348l-209 -15v97q0 35 -10.5 49t-48.5 14h-140v-979l162 -6v-174h-577v166l108 6q59 6 59 57v930h-159q-47 0 -47 -63v-97z" />
<glyph unicode="U" horiz-adv-x="1349" d="M45 1188v174h496v-166l-68 -6q-33 -4 -47 -17.5t-14 -50.5v-680q0 -143 68.5 -201.5t199.5 -58.5q125 0 195.5 63.5t70.5 186.5v750l-119 6v174h486v-166l-68 -6q-59 -6 -59 -62v-731q0 -199 -139.5 -311.5t-374.5 -112.5q-256 0 -382 110t-126 347v752z" />
<glyph unicode="V" horiz-adv-x="1339" d="M10 1188v174h529v-166l-68 -6q-62 -5 -62 -49q0 -10 3 -23l274 -825h10l287 887l-125 8v174h471v-166l-67 -6q-27 -2 -39.5 -15.5t-24.5 -46.5l-387 -1128h-266l-418 1182z" />
<glyph unicode="W" horiz-adv-x="1812" d="M10 1188v174h508v-166l-67 -6q-64 -5 -64 -53q0 -9 2 -19l178 -790h8l213 925h265l221 -929h4l174 856l-111 8v174h461v-166l-67 -6q-53 -4 -68 -74l-258 -1116h-281l-215 911h-6l-209 -911h-288l-283 1182z" />
<glyph unicode="X" horiz-adv-x="1271" d="M10 0v166l64 6q39 6 78 66l331 475l-311 458l-113 11v180h543v-168l-51 -6q-43 -4 -54.5 -28.5t9.5 -55.5l137 -215l199 293l-103 6v174h469v-166l-63 -6q-39 -7 -78 -66l-293 -395l359 -541l129 -8v-180h-570v168l62 6q39 4 53 27.5t-4 50.5l-185 285l-235 -357l98 -6 v-174h-471z" />
<glyph unicode="Y" horiz-adv-x="1167" d="M10 1188v174h500v-166l-61 -6q-33 -2 -42.5 -24.5t7.5 -55.5l174 -356h8l223 426l-102 8v174h440v-166l-61 -6q-39 -4 -70 -62l-321 -608v-340l159 -6v-174h-577v166l108 6q60 4 60 57v291l-349 662z" />
<glyph unicode="Z" horiz-adv-x="1091" d="M68 0v170l618 997h-340q-55 0 -55 -63v-82l-209 14v326h895v-166l-625 -1001h398q51 0 51 65v143l209 -14v-389h-942z" />
<glyph unicode="[" horiz-adv-x="665" d="M164 -340v1802h430v-166h-205v-1470h205v-166h-430z" />
<glyph unicode="\" horiz-adv-x="901" d="M31 1470l211 78l628 -1695l-211 -76z" />
<glyph unicode="]" horiz-adv-x="665" d="M72 -174h204v1470h-204v166h430v-1802h-430v166z" />
<glyph unicode="^" horiz-adv-x="1132" d="M100 618l383 762h179l380 -764l-206 -32l-267 546l-268 -546z" />
<glyph unicode="_" horiz-adv-x="1024" d="M0 -152h1024v-149h-1024v149z" />
<glyph unicode="`" horiz-adv-x="1024" d="M325 1491q-1 41 58 74l96 45l238 -393l-80 -68l-262 254q-49 47 -50 88z" />
<glyph unicode="a" horiz-adv-x="1161" d="M82 471q0 279 135 434.5t406 155.5q174 0 364 -72v-762q0 -33 11.5 -45t39.5 -14l66 -4v-164h-326v119l-6 2q-102 -147 -280 -148q-209 0 -309.5 133.5t-100.5 364.5zM332 479q0 -332 213 -332q90 0 147.5 54.5t57.5 124.5v530q-57 27 -158 27q-137 0 -198.5 -110.5 t-61.5 -293.5z" />
<glyph unicode="b" horiz-adv-x="1138" d="M35 1290v170h360v-485q92 86 248 86q193 0 305.5 -130t112.5 -366q0 -592 -496 -592q-106 0 -223.5 25.5t-183.5 62.5v1176q0 47 -52 49zM395 195q78 -41 180 -41q233 0 234 378q0 346 -229 347q-74 0 -129.5 -43t-55.5 -111v-530z" />
<glyph unicode="c" horiz-adv-x="964" d="M68 502q0 287 144 423t343 136q164 0 319 -84v-266l-188 -15v99q0 55 -43 69q-37 12 -80 13q-248 0 -248 -351q0 -174 66 -270t199 -96q115 0 235 88l88 -158q-145 -119 -356 -119q-227 0 -353 138.5t-126 392.5z" />
<glyph unicode="d" horiz-adv-x="1163" d="M82 475q0 266 132 426t368 160q88 0 168 -25v207q0 45 -54 49l-88 6v162h381v-1245q2 -47 51 -47l72 -4v-164h-332v121l-6 2q-92 -150 -278 -150q-115 0 -199 41t-129 115t-65.5 159t-20.5 187zM334 498q0 -344 221 -344q84 0 139.5 47.5t55.5 117.5v531q-74 33 -156 33 q-135 0 -197.5 -108.5t-62.5 -276.5z" />
<glyph unicode="e" horiz-adv-x="991" d="M76 491.5q0 241.5 133 405.5t373 164q154 0 243.5 -75t89.5 -210q0 -90 -38.5 -158.5t-96 -107.5t-139.5 -63.5t-154.5 -32.5t-154.5 -8q6 -109 67.5 -175.5t184.5 -66.5q131 0 258 90l78 -166q-41 -37 -138.5 -76t-222.5 -39q-250 0 -366.5 138.5t-116.5 380zM324 578 q90 2 164.5 15t138 59t63.5 120q0 55 -32.5 85t-90.5 30q-115 0 -176 -91t-67 -218z" />
<glyph unicode="f" horiz-adv-x="757" d="M20 858v172h177v78q0 57 6 102t27.5 98.5t58.5 89.5t103.5 59.5t158.5 23.5q156 0 285 -72l-60 -164q-98 51 -194 51q-76 0 -109 -42t-33 -128v-96h303v-172h-303v-686l172 -8v-164h-542v156l67 6q31 4 45.5 17t14.5 50v629h-177z" />
<glyph unicode="g" horiz-adv-x="1114" d="M72 516q0 268 145 406.5t387 138.5q201 0 379 -76v-760q0 -174 -4 -223q-18 -227 -131 -333.5t-342 -106.5q-250 0 -385 67v285l194 16v-98q0 -55 47 -74q55 -20 146 -20q131 0 184 79t53 222v113q-98 -115 -272 -115q-106 0 -187 41t-126 111.5t-66.5 152.5t-21.5 174z M324 541q0 -324 213 -324q88 0 148 54.5t60 146.5v440q-70 25 -163 25q-125 0 -191.5 -92.5t-66.5 -249.5z" />
<glyph unicode="h" horiz-adv-x="1228" d="M66 0v156l67 6q31 4 45.5 17t14.5 50v998q0 33 -11.5 45t-40.5 14l-71 4v170h364v-551q106 152 299 152q156 0 241 -89t85 -267v-535l117 -6v-164h-488v156l68 6q31 4 45 17.5t14 49.5v422q0 106 -33.5 163.5t-126.5 57.5q-102 0 -160.5 -60t-58.5 -146v-496l117 -6v-164 h-487z" />
<glyph unicode="i" horiz-adv-x="606" d="M68 0v156l67 6q59 6 60 65v570q0 35 -11.5 47t-40.5 12l-71 4v170h366v-860l117 -6v-164h-487zM137 1314.5q0 65.5 43 109.5t115 44q68 0 112 -44t44 -109.5t-44.5 -107.5t-114 -42t-112.5 42t-43 107.5z" />
<glyph unicode="j" horiz-adv-x="579" d="M-164 -367l74 170q80 -43 151 -43q61 0 91 41t30 140v856q0 33 -11 45t-40 14l-72 4v170h367v-1079q0 -84 -11.5 -145.5t-43 -121t-100 -91t-173.5 -31.5q-147 0 -262 71zM125 1314.5q0 65.5 43 109.5t115 44q68 0 111.5 -44t43.5 -109.5t-44 -107.5t-113.5 -42 t-112.5 42t-43 107.5z" />
<glyph unicode="k" horiz-adv-x="1138" d="M68 0v156l67 6q31 4 45.5 17t14.5 50v998q0 33 -11.5 45t-40.5 14l-71 4v170h364v-887q113 10 197 69.5t115 156.5q7 20 7 34q0 33 -38 33h-2l-78 4v160h424v-166l-98 -4q-27 -209 -181 -330l201 -360l125 -6v-164h-299l-234 426q-68 -18 -139 -29v-227h2l117 -6v-164 h-487z" />
<glyph unicode="l" horiz-adv-x="610" d="M63 0v156l68 6q59 6 59 65v1010q0 45 -51 49l-71 4v170h366v-1290l117 -6v-164h-488z" />
<glyph unicode="m" horiz-adv-x="1773" d="M55 864v166h346v-133q115 164 312 164q203 0 272 -164q115 164 311 164q147 0 227.5 -89t80.5 -267v-535l116 -6v-164h-487v156l67 6q31 4 44.5 17.5t15.5 47.5v424q0 113 -25.5 167t-115.5 54q-98 0 -148.5 -57t-50.5 -153v-492l113 -6v-164h-484v156l68 6q31 4 45 17.5 t14 49.5v422q0 113 -25.5 167t-115.5 54q-100 0 -149.5 -59t-49.5 -147v-496l111 -6v-164h-484v156l68 6q31 4 45 17.5t14 49.5h3v566q0 35 -11.5 48t-40.5 15z" />
<glyph unicode="n" horiz-adv-x="1228" d="M55 866v164h346v-133q53 76 141.5 120t190.5 44q156 0 241 -89t85 -267v-535l117 -6v-164h-488v156l68 6q31 4 45 17.5t14 49.5v422q0 113 -35 167t-133 54q-96 0 -153.5 -61t-57.5 -145v-496l117 -6v-164h-487v156l67 6q31 4 45.5 17.5t14.5 49.5v568q0 61 -52 63z" />
<glyph unicode="o" horiz-adv-x="1081" d="M68 516q0 152 45 263.5t120.5 170t155.5 85t166 26.5q55 0 106.5 -8.5t119 -40t115.5 -83.5t82 -151.5t34 -234.5q0 -283 -137.5 -428.5t-352.5 -145.5q-213 0 -333.5 138.5t-120.5 408.5zM315 545q0 -82 8.5 -143.5t30 -124t68.5 -95t117 -32.5q223 0 223 360 q0 182 -50 276.5t-169 94.5q-117 0 -172.5 -90.5t-55.5 -245.5z" />
<glyph unicode="p" horiz-adv-x="1163" d="M45 864v166h346v-133q33 61 119 112.5t205 51.5q370 0 370 -517q0 -279 -120.5 -427t-327.5 -148q-123 0 -219 60v-283l166 -8v-162h-529v156l68 6q31 4 45 17t14 50v992q0 35 -11 48t-40 13zM418 215q78 -51 180 -51q121 0 177 102t56 254q0 342 -206 342 q-86 0 -146.5 -52t-60.5 -124v-471z" />
<glyph unicode="q" horiz-adv-x="1128" d="M82 471q0 299 142.5 444.5t385.5 145.5q201 0 379 -76v-1239l119 -6v-164h-539v156l121 6q31 2 46.5 16t15.5 51v283q-98 -115 -273 -115q-141 0 -234 79t-128 185.5t-35 233.5zM334 504q0 -68 6 -119t26.5 -109.5t66.5 -90t116 -31.5q90 0 145.5 47t55.5 135v522 q-70 25 -162 25q-123 0 -188.5 -105.5t-65.5 -273.5z" />
<glyph unicode="r" horiz-adv-x="946" d="M57 864v166h346v-153q37 80 115 132t176 52q104 0 197 -45v-305l-191 -15v95q0 41 -20 51q-23 10 -55 10q-82 0 -134.5 -58.5t-52.5 -148.5v-475l178 -8v-162h-548v156l67 6q31 4 45.5 17t14.5 50v568q0 33 -11.5 46t-40.5 15z" />
<glyph unicode="s" horiz-adv-x="923" d="M90 37v285l184 14v-98q0 -51 48 -70q55 -20 135 -21q161 0 161 123q0 47 -29.5 76t-58 39t-97.5 29q-11 2 -15 4q-72 18 -116 35.5t-97 51.5t-79 91t-26 139q0 154 113 240t283 86q172 0 340 -82v-246l-185 -14v86q0 51 -47 69q-48 18 -118 18q-1 0 -3 1q-68 0 -109 -32 q-42 -32 -42 -91q0 -33 15 -58.5t48 -43t58.5 -26.5t72.5 -21q63 -18 98 -29.5t87.5 -38.5t80 -56.5t49 -80.5t21.5 -115q0 -154 -111.5 -241t-283.5 -87q-250 0 -377 64z" />
<glyph unicode="t" horiz-adv-x="772" d="M39 858l20 150q96 8 145.5 68t90.5 171h133v-217h272l-20 -172h-252v-539q0 -90 33 -125.5t100 -35.5q70 0 139 43l62 -158q-102 -72 -260 -72q-92 0 -155.5 23.5t-94.5 52.5t-47.5 84t-18.5 87t-2 93v547h-145z" />
<glyph unicode="u" horiz-adv-x="1210" d="M55 862v168h361v-649q0 -109 30.5 -164t120.5 -55q102 0 160.5 59.5t58.5 143.5v432q0 33 -11 46t-40 15l-65 4v168h360v-803q0 -33 10.5 -44t40.5 -15l72 -6v-162h-332v133q-113 -160 -332 -160q-317 0 -317 355v473q0 55 -51 57z" />
<glyph unicode="v" horiz-adv-x="1142" d="M20 870v160h482v-164l-125 -6l211 -674h4l205 674l-107 6v164h432v-160l-63 -4q-41 -4 -55 -49l-265 -817h-313l-287 815q-10 29 -21.5 39t-37.5 12z" />
<glyph unicode="w" horiz-adv-x="1628" d="M20 872v158h469v-164l-114 -6l141 -629h4l225 758h199l213 -762h4l139 633l-104 6v164h412v-158l-68 -4q-41 -4 -55 -49l-195 -819h-295l-168 610h-6l-174 -610h-301l-207 817q-10 29 -21.5 39t-37.5 12z" />
<glyph unicode="x" horiz-adv-x="1093" d="M29 0v162l63 6q47 6 82 49l236 295l-252 348l-105 12v158h477v-162l-59 -4q-25 -2 -32 -18.5t7 -34.5l117 -156l158 205l-84 6v164h416v-160l-62 -4q-43 -2 -82 -51l-225 -285l268 -356l105 -12v-162h-488v162l64 4q27 2 31.5 17.5t-11.5 33.5l-125 164l-170 -211l97 -6 v-164h-426z" />
<glyph unicode="y" horiz-adv-x="1173" d="M55 862v168h361v-588q0 -109 30.5 -164t120.5 -55q102 0 160.5 59.5t58.5 143.5v371q0 35 -11 48t-40 13l-65 4v168h360v-991q0 -248 -119.5 -362.5t-355.5 -114.5q-250 0 -385 67v285l195 16v-98q0 -55 47 -74q55 -20 145 -20q264 0 264 301v156q-113 -160 -332 -160 q-317 0 -317 354v412q0 55 -51 57z" />
<glyph unicode="z" horiz-adv-x="989" d="M82 0v156l526 692h-258q-43 0 -54 -16.5t-11 -53.5v-71l-193 14v309h815v-139l-532 -707h291q59 0 59 70v86l193 -14v-326h-836z" />
<glyph unicode="{" horiz-adv-x="696" d="M88 500v151q84 10 109.5 63.5t21.5 180.5q-2 57 -8 164.5t-8 126.5q-6 141 62.5 214t195.5 73q82 0 164 -21l-21 -152q-57 10 -82 11q-63 0 -82.5 -32t-19.5 -112q0 -45 9 -165.5t9 -167.5q0 -104 -30.5 -166t-104.5 -93q78 -27 106.5 -81t28.5 -166q0 -47 -11 -180.5 t-11 -180.5q0 -80 19.5 -116.5t82.5 -36.5q39 0 80 10l20 -156q-86 -18 -161 -18q-125 0 -193.5 69.5t-68.5 190.5q0 61 20 348q6 119 -19.5 175t-107.5 67z" />
<glyph unicode="|" horiz-adv-x="561" d="M174 -180v1710h213v-1710h-213z" />
<glyph unicode="}" horiz-adv-x="696" d="M72 1452q82 20 164 21q127 0 195.5 -73t62.5 -214q-2 -18 -8.5 -126t-8.5 -165q-4 -127 21.5 -180t109.5 -64v-151q-82 -10 -107.5 -66.5t-19.5 -175.5q20 -287 21 -348q0 -121 -68.5 -190.5t-193.5 -69.5q-76 0 -162 18l20 156q41 -10 80 -10q63 0 83 36.5t20 116.5 q0 47 -11.5 180.5t-11.5 180.5q0 113 28.5 166.5t106.5 80.5q-74 31 -104.5 92.5t-30.5 166.5q0 47 9 167.5t9 165.5q0 80 -19 112t-83 32q-25 0 -82 -11z" />
<glyph unicode="~" horiz-adv-x="1224" d="M96 578q129 217 299 217q88 0 222.5 -78t195.5 -78q92 0 166 131l149 -111q-100 -213 -299 -213q-94 0 -229 75t-184 75q-84 0 -172 -133z" />
<glyph unicode="&#xa2;" d="M154 616q0 246 113.5 380t285.5 169v238h154v-229q145 -8 284 -82v-267l-188 -14v98q0 55 -43 70q-31 8 -53 10v-704q104 6 215 88l88 -158q-129 -102 -303 -117v-221h-154v225q-186 29 -292.5 161t-106.5 353zM401 641q0 -258 152 -330v656q-152 -72 -152 -326z" />
<glyph unicode="&#xa3;" horiz-adv-x="1130" d="M66 -16v190q158 74 172 256l12 162h-172l20 172h164l12 176q29 406 449 406q190 0 348 -84v-287l-209 -14v96q0 31 -7 45t-34 24q-43 18 -96 19q-104 0 -154.5 -52.5t-58.5 -170.5l-12 -158h358l-20 -170h-349l-6 -84q-12 -172 -178 -299l4 -8q111 41 172 41 q53 0 164 -20.5t186 -20.5q92 0 193 28l-27 -219q-98 -18 -178 -18q-100 0 -251.5 25.5t-243.5 25.5q-121 0 -258 -61z" />
<glyph unicode="&#xa5;" horiz-adv-x="1126" d="M10 1188v174h500v-166l-61 -6q-33 -2 -42.5 -24.5t7.5 -55.5l153 -315h8l203 385l-102 8v174h440v-166l-61 -6q-39 -4 -70 -62l-219 -366h231v-156h-313v-133h313v-156h-313v-137l160 -6v-174h-578v166l109 6q59 4 59 57v88h-313v156h313v133h-313v156h231l-246 420z" />
<glyph unicode="&#xa9;" horiz-adv-x="1667" d="M123 668q0 303 197.5 509.5t502.5 206.5q313 0 516 -204.5t203 -499.5q0 -309 -202.5 -515t-516.5 -206q-322 0 -511 196.5t-189 512.5zM285 668q0 -256 150.5 -409t390 -153t397 161t157.5 407q0 242 -158.5 402.5t-396.5 160.5q-240 0 -390 -163t-150 -406zM475 678 q0 113 34 196.5t89 126.5t112.5 63.5t118.5 20.5q195 0 308 -153l-115 -90q-94 102 -197 102q-78 0 -132 -62.5t-54 -201.5q0 -274 199 -274q92 0 196 86l82 -111q-111 -115 -282 -115q-176 0 -267.5 109.5t-91.5 302.5z" />
<glyph unicode="&#xad;" horiz-adv-x="659" d="M61 496v188h537v-188h-537z" />
<glyph unicode="&#xae;" horiz-adv-x="948" d="M61 985q0 174 115 287.5t293 113.5q182 0 300 -113.5t118 -283.5q0 -176 -117 -289.5t-301 -113.5q-186 0 -297 111.5t-111 287.5zM170 985q0 -135 84 -221t215 -86q137 0 223 84t86 223q0 133 -88 220t-221 87q-135 0 -217 -86t-82 -221zM332 774v432h155 q143 0 144 -116q0 -86 -70 -119q17 -8 27 -31l74 -166h-103l-63 144q-12 29 -33 28h-39v-172h-92zM424 1020h33q74 0 73 61q0 51 -73 52h-33v-113z" />
<glyph unicode="&#xb4;" horiz-adv-x="1024" d="M303 1217l238 393l96 -45q59 -33 58 -74t-50 -88l-262 -254z" />
<glyph unicode="&#x2000;" horiz-adv-x="805" />
<glyph unicode="&#x2001;" horiz-adv-x="1610" />
<glyph unicode="&#x2002;" horiz-adv-x="805" />
<glyph unicode="&#x2003;" horiz-adv-x="1610" />
<glyph unicode="&#x2004;" horiz-adv-x="536" />
<glyph unicode="&#x2005;" horiz-adv-x="402" />
<glyph unicode="&#x2006;" horiz-adv-x="268" />
<glyph unicode="&#x2007;" horiz-adv-x="268" />
<glyph unicode="&#x2008;" horiz-adv-x="201" />
<glyph unicode="&#x2009;" horiz-adv-x="322" />
<glyph unicode="&#x200a;" horiz-adv-x="89" />
<glyph unicode="&#x2010;" horiz-adv-x="659" d="M61 496v188h537v-188h-537z" />
<glyph unicode="&#x2011;" horiz-adv-x="659" d="M61 496v188h537v-188h-537z" />
<glyph unicode="&#x2012;" horiz-adv-x="659" d="M61 496v188h537v-188h-537z" />
<glyph unicode="&#x2013;" horiz-adv-x="1024" d="M0 500v170h1024v-170h-1024z" />
<glyph unicode="&#x2014;" horiz-adv-x="2048" d="M0 500v170h2048v-170h-2048z" />
<glyph unicode="&#x2018;" horiz-adv-x="450" d="M63 1085q0 41 23 80l195 338l129 -47l-119 -483q-125 14 -189 47q-39 20 -39 65z" />
<glyph unicode="&#x2019;" horiz-adv-x="434" d="M63 1020l119 483q125 -14 189 -47q39 -20 39 -65q0 -41 -23 -80l-194 -338z" />
<glyph unicode="&#x201c;" horiz-adv-x="790" d="M63 1085q0 41 23 80l195 338l129 -47l-119 -483q-125 14 -189 47q-39 20 -39 65zM403 1085q0 41 23 80l195 338l129 -47l-119 -483q-125 14 -189 47q-39 20 -39 65z" />
<glyph unicode="&#x201d;" horiz-adv-x="774" d="M63 1020l119 483q125 -14 189 -47q39 -20 39 -65q0 -41 -23 -80l-194 -338zM403 1020l119 483q125 -14 189 -47q39 -20 39 -65q0 -41 -23 -80l-195 -338z" />
<glyph unicode="&#x2022;" horiz-adv-x="1024" d="M274 635q0 113 67 182.5t171 69.5t171 -69.5t67 -182.5q0 -115 -67 -184.5t-171 -69.5t-171 69.5t-67 184.5z" />
<glyph unicode="&#x2026;" horiz-adv-x="1488" d="M74 115q0 63 40 105t105 42q72 0 113 -40t41 -105q0 -63 -39 -105.5t-107 -42.5q-76 0 -114.5 40t-38.5 106zM602 115q0 63 40 105t106 42q72 0 112.5 -40t40.5 -105q0 -63 -39 -105.5t-106 -42.5q-76 0 -115 40t-39 106zM1114 115q0 63 40 105t106 42q72 0 112.5 -40 t40.5 -105q0 -63 -39 -105.5t-106 -42.5q-76 0 -115 40t-39 106z" />
<glyph unicode="&#x202f;" horiz-adv-x="322" />
<glyph unicode="&#x205f;" horiz-adv-x="402" />
<glyph unicode="&#x20ac;" horiz-adv-x="1148" d="M82 422v168h829v-168h-430q25 -121 89.5 -180.5t179.5 -59.5q133 0 247 97l117 -164q-154 -139 -389 -140q-420 0 -498 447h-145zM82 707v167h145q23 231 168.5 351.5t352.5 120.5q193 0 350 -84v-287l-209 -14v96q0 31 -8.5 44t-34.5 23q-48 19 -111 19 q-113 0 -179.5 -76t-78.5 -193h434v-167h-829z" />
<glyph unicode="&#x2122;" horiz-adv-x="1595" d="M80 1165v197h579v-197l-114 -8v41q0 18 -5 25.5t-26 7.5h-61v-445l82 -6v-106h-330v104l55 2q29 6 29 29v422h-70q-25 0 -24 -33v-41zM690 674v104l37 4q27 0 27 29l20 428l-63 4v119h264l155 -410h3l155 410h238v-115l-33 -2q-33 -6 -33 -37l27 -422l65 -4v-108h-272 v104l37 4q29 0 29 27l-19 332h-4l-152 -400h-106l-160 402h-2l-20 -357l67 -4v-108h-260z" />
<glyph unicode="&#xe000;" horiz-adv-x="1030" d="M0 1030h1030v-1030h-1030v1030z" />
</font>
</defs>
</svg>
